Se connecter / S'enregistrer
Votre question

Couper un fichier mp3

Tags :
  • Programme
  • Logiciels
Dernière réponse : dans Logiciels
19 Mars 2005 18:01:12

Bonjours,

Je dispose d'un fichier mp3 et dun ficher Cue
lorsque je tente de decouper le mp3 avec le logicien MP3DirectCut 1.39 , un message averti que de nombreuses erreurs de synchronisation ont eu lieues et les fichiers crees sont illisibles et ne pesent que 128 Octets... Or , je ne connais pas dautre alternative que ce programme... que faire ? (j'ai essayé avec des fichiers deiiferents => le pb ne vient pas du mp3)

Autres pages sur : couper fichier mp3

19 Mars 2005 18:18:18

up!
Contenus similaires
20 Mars 2005 16:55:24

Citation :
Essaye avec le logiciel gratuit et en français Audacity (clique ici).


je viens dessayer mais malheuresement ce prog ne supporte pas les fichiers .cue !
20 Mars 2005 19:17:33

Non, effectivement.
Mais il supporte les MP3.
Et d'après ce que tu as dit au départ, ton problème concerne ton fichier MP3.

C'est bien ce que tu as dit, non ?...



22 Mars 2005 21:13:50

en effet , mais j'ai un fichier du type:

PERFORMER "Various Artists"
TITLE "Super Italia Vol. 16"
FILE "Super Italia Vol. 16.mp3" WAVE
TRACK 01 AUDIO
TITLE "Nothing"
PERFORMER "Them Bansis"
INDEX 01 00:00:00
TRACK 02 AUDIO
TITLE "Dr Jeckyll & Mr. DJ"
PERFORMER "Gabry Ponte"
INDEX 01 03:51:36
TRACK 03 AUDIO
TITLE "The World Inside"
PERFORMER "Nowak"
INDEX 01 09:31:09
TRACK 04 AUDIO
TITLE "You Will Fly"
PERFORMER "Thomas"
INDEX 01 13:39:10
TRACK 05 AUDIO
TITLE "Sex On The Streets"
PERFORMER "DJ Martello"
INDEX 01 17:15:29
TRACK 06 AUDIO
TITLE "Te Quiero"
PERFORMER "Maria"
INDEX 01 21:02:53
TRACK 07 AUDIO
TITLE "Mysterious Times"
PERFORMER "DJ Lhasa"
INDEX 01 24:38:67
TRACK 08 AUDIO
TITLE "Tekno Matik"
PERFORMER "Manthea"
INDEX 01 27:53:65
TRACK 09 AUDIO
TITLE "You Are Living"
PERFORMER "Jordi Carreras"
INDEX 01 31:51:47
TRACK 10 AUDIO
TITLE "Please Let Me Go"
PERFORMER "Azoom 3"
INDEX 01 35:39:63
TRACK 11 AUDIO
TITLE "Star"
PERFORMER "Luca Zeta"
INDEX 01 39:23:64
TRACK 12 AUDIO
TITLE "Memories"
PERFORMER "Brothers"
INDEX 01 43:03:23
TRACK 13 AUDIO
TITLE "Come Together"
PERFORMER "DJ Rob vs. B.A.R. & Roxy"
INDEX 01 47:19:20
TRACK 14 AUDIO
TITLE "To France"
PERFORMER "Under:Cover"
INDEX 01 52:05:41
TRACK 15 AUDIO
TITLE "Things Can Only"
PERFORMER "Tragma"
INDEX 01 55:22:28
TRACK 16 AUDIO
TITLE "Special Day"
PERFORMER "Paper Boy"
INDEX 01 59:59:01
TRACK 17 AUDIO
TITLE "Revenge"
PERFORMER "D.B. Reloaded"
INDEX 01 63:38:65
TRACK 18 AUDIO
TITLE "I Need A Boyfriend"
PERFORMER "Haiducii"
INDEX 01 67:40:53
TRACK 19 AUDIO
TITLE "Sorry Marin"
PERFORMER "Magic Box"
INDEX 01 70:41:25
TRACK 20 AUDIO
TITLE "The Rain"
PERFORMER "Gigi D`Agostino"
INDEX 01 74:07:36

****.cue

et je dois couper a ces moments precis. je prefererais quand meme ne pas avoir a le faire manuellement ;-)
2 Avril 2005 17:01:50

up !
4 Avril 2005 20:54:19

up
4 Avril 2005 22:06:57

re-up ! (c important)
4 Avril 2005 22:45:17

up
a b 6 Logiciels
4 Avril 2005 23:01:25

Juste un truc... évite de faire des UP ! je pense pas que tu sois bien aimé après... une fois, deux fois ça passe mais la t'en es a 10 fois (environ... j'ai pas compté !).
Puis, vu le temps que tu as attendu pour avoir une réponse... tu penses pas que t'aurais eu le temps de le couper manuellement ce fichier ?? ;-)
Le plus simple c'est quand même de couper manuellement, ça sert à rien tous ces fichiers .cue, vive le manuel ! :-D
5 Avril 2005 20:48:30

enfin ces fichiers .cue coupent a la miliseconde pres , et puis cet exemple nen est un parmi les 30 autres que je possede... (et pas moyen de les graver avec ce cue avec alcohol ni nero 6.6 en plus !!!)
a b 6 Logiciels
5 Avril 2005 23:23:04

Sinon si tu veux les graver, tu peux avec Nero ou Alcohol normalement...
5 Avril 2005 23:36:51

ton fichier c un fichier '' bin'' avec un fichier ''cue'' non ?
7 Avril 2005 20:30:37

au fait c'est un fichier .mp3 et un fichier .cue
avec alcohol , un message derreur me dit ke c pas compatible , avec nero ca plante.
Tom's guide dans le monde
  • Allemagne
  • Italie
  • Irlande
  • Royaume Uni
  • Etats Unis
Suivre Tom's Guide
Inscrivez-vous à la Newsletter
  • ajouter à twitter
  • ajouter à facebook
  • ajouter un flux RSS