Se connecter / S'enregistrer
Votre question

Probleme avec ffmpeg

Tags :
  • Flash
  • Logiciels
Dernière réponse : dans Logiciels
10 Août 2010 07:19:18

bonjour a tous,


je suis sous linux, j'utilise ffmpeg pour convertir un avi en flv car prend moins de place pour le mettre sur un site.

voici ma commande: ffmpeg -i ~/Bureau/video.avi -acodec libmp3lame -ar 44100 -ab 25 -f flv -s 720x400 video.flv

au moment de la conversion j'ai ceci:

File 'video.flv' already exists. Overwrite ? [y/N] y
Output #0, flv, to 'video.flv':
Stream #0.0: Video: flv, yuv420p, 720x400 [PAR 1:1 DAR 9:5], q=2-31, 200 kb/s, 90k tbn, 25 tbc
Stream #0.1: Audio: libmp3lame, 44100 Hz, stereo, s16, 0 kb/s
Stream mapping:
Stream #0.0 -> #0.0
Stream #0.1 -> #0.1

je n'ai pas d'audio.

pouvez vous m'aider.

merci de votre aide

Autres pages sur : probleme ffmpeg

a b 6 Logiciels
10 Août 2010 09:38:40

Salut.N'étant pas et de loin un spécialiste Linuxien, je te propose ce lien, en espérant qu'il t'aide:http://doc.ubuntu-fr.org/ffmpeg
m
0
l
Tom's guide dans le monde
  • Allemagne
  • Italie
  • Irlande
  • Royaume Uni
  • Etats Unis
Suivre Tom's Guide
Inscrivez-vous à la Newsletter
  • ajouter à twitter
  • ajouter à facebook
  • ajouter un flux RSS